ExtraTorrent - The Largest Bittorent System Login   |    Register
Latest Articles
Most searched
Hot torrents
Movie Torrents
View Torrent Info: Upgrade (2018) [720p] [YTS] [YIFY]
View Torrent Info: Adrift (2018) [720p] [YTS] [YIFY]
View Torrent Info: American Animals (2018) [720p] [YTS] [YIFY]
View Torrent Info: What Still Remains (2018) [720p] [YTS] [YIFY]
View Torrent Info: Patient Zero (2018) [720p] [YTS] [YIFY]
View Torrent Info: Viking Destiny (2018) [720p] [YTS] [YIFY]
View Torrent Info: Action Point (2018) [720p] [YTS] [YIFY]
View Torrent Info: Gatao 2: Rise of the King (2018) [720p] [YTS] [YIFY]
View Torrent Info: The House of Tomorrow (2017) [720p] [YTS] [YIFY]
View Torrent Info: Vampire Cleanup Department (2017) [720p] [YTS] [YIFY]
Hot torrents
TV Torrents
View Torrent Info: Suits.S08E05.HDTV.x264-SVA[eztv]
View Torrent Info: Power.2014.S05E07.HDTV.x264[eztv]
View Torrent Info: Elementary.S06E15.HDTV.x264-AVSHiT[eztv]
View Torrent Info: Better.Call.Saul.S04E02.HDTV.x264-SVA[eztv]
View Torrent Info: Killjoys.S04E05.WEBRip.x264-PBS[eztv]
View Torrent Info: Shooter.S03E09.WEB.x264-STRiFE[eztv]
View Torrent Info: Ballers.2015.S04E01.HDTV.x264-aAF[eztv]
View Torrent Info: Elementary.S06E16.HDTV.x264-KILLERS[eztv]
View Torrent Info: Shades.of.Blue.S03E09.HDTV.x264-KILLERS[eztv]
View Torrent Info: The.Sinner.S02E03.HDTV.x264-KILLERS[eztv]
ExtraTorrent > Categories > Movies torrents > HD torrents


Browse Movies torrents

18+ The Package 2018 UNCENOSRED Movies 720p HDRip x264 5.1 ESubs with Sample ☻rDX☻ torrent


Download torrent: Download 18+ The Package 2018 UNCENOSRED Movies 720p HDRip x264 5.1 ESubs with Sample ☻rDX☻ torrent Magnet link Bookmark Torrent: 18+ The Package 2018 UNCENOSRED Movies 720p HDRip x264 5.1 ESubs with Sample ☻rDX☻ 18+ The Package 2018 UNCENOSRED Movies 720p HDRip x264 5.1 ESubs with Sample ☻rDX☻ torrent | if not working, try instead: Magnet Link
Info hash: CF85C653790E0F7705E272FB9E30E85C8C15EEBC
Category: Categories > Movies torrents > HD torrents
Trackers:
14    View all torrent trackers >
Health:
 seeds: 18 ,  leechers: 4 |  Update >
Torrent language:  
Total Size: 899.80 MB
Torrent status: Added by trusted uploader Added by trusted uploader Trusted Uploader Site Friend Superman Sun
Uploader: Trusted Uploader Site Friend Superman Sun
Torrent added: 2018-08-10 19:01:46
 

Download 18+ The Package 2018 UNCENOSRED Movies 720p HDRip x264 5.1 ESubs with Sample ☻rDX☻ torrent if not working, try downloading torrent using Download 18+ The Package 2018 UNCENOSRED Movies 720p HDRip x264 5.1 ESubs with Sample ☻rDX☻ via Magnet Link




Torrent Description

18+ The Package 2018 UNCENOSRED Movies 720p HDRip x264 5.1 ESubs with Sample ☻rDX☻
===============================================================================================

SCREEN SHOTS:



or

http://iphonehosting.eu/2018/8/home/1.html

File size : 885 MiB
Duration : 1 h 34 min
Overall bit rate : 1 307 kb/s
Movie name : 18+ The Package 2018 UNCENOSRED Movies 720p HDRip x264 5.1 ESubs ☻rDX☻

Video
ID : 2
Format : AVC
Format/Info : Advanced Video Codec
Format profile : [email protected]
Format settings, CABAC : Yes
Format settings, ReFrames : 4 frames
Codec ID : V_MPEG4/ISO/AVC
Duration : 1 h 34 min
Bit rate : 921 kb/s
Width : 1 280 pixels
Height : 528 pixels
Display aspect ratio : 2.40:1
Frame rate mode : Constant
Frame rate : 23.976 (24000/1001) FPS
Color space : YUV
Chroma subsampling : 4:2:0
Bit depth : 8 bits
Scan type : Progressive
Bits/(Pixel*Frame) : 0.057
Stream size : 607 MiB (69%)
Title : ☻rDX☻
Writing library : x264

Audio
ID : 1
Format : AC-3
Format/Info : Audio Coding 3
Mode extension : CM (complete main)
Format settings, Endianness : Big
Codec ID : A_AC3
Duration : 1 h 34 min
Bit rate mode : Constant
Bit rate : 384 kb/s
Channel(s) : 6 channels
Channel positions : Front: L C R, Side: L R, LFE
Sampling rate : 48.0 kHz
Frame rate : 31.250 FPS (1536 spf)
Bit depth : 16 bits
Compression mode : Lossy
Delay relative to video : -21 ms
Stream size : 260 MiB (29%)
Title : ☻rDX☻
Language : English
Default : No
Forced : No

Text
ID : 3
Format : UTF-8
Codec ID : S_TEXT/UTF8
Codec ID/Info : UTF-8 Plain Text
Title : ☻rDX☻
Language : English
Default : Yes
Forced : No



IMDB : https://www.imdb.com/title/tt7525778



#nehalpuja -> To avoid fakes, ALWAYS check that the torrent was added on ExtraTorrent by nehalpuja

https://extratorrent.nocensor.cc/



Download 18+ The Package 2018 UNCENOSRED Movies 720p HDRip x264 5.1 ESubs with Sample ☻rDX☻ torrent


Comments (please add your comment)
No comments



Home - Browse Torrents - Upload Torrent - Stat - Forum - FAQ - Login
ExtraTorrent is in compliance with copyrights
2006-2018 ExtraTorrent